홈으로...
회원가입 | 출석체크 | 즉석복권
[드라마/멜로] 포 러버즈 (11월개봉 자체자막 Happy.Few.2010.KORSUB.x264.AC3-ADiOS)
등록일: 2012-11-04 16:59:45
  Happy.Few.2010.KORSUB.x264.AC3-ADiOS.torrent (15.8K)
포 러버즈 (11월개봉 자체자막 Happy.Few.2010.KORSUB.x264.AC3-ADiOS)   무료성인자료다운  
 








 
요약정보
로맨스/멜로 | 프랑스 | 103 분 | 개봉 2012-11-01 |
제작/배급
에이원엔터테인먼트(배급), (주)토러스엔터테인먼트(수입), (주)엣나인필름 (수입)
감독
앙토니 코르디에
출연
마리나 포이스 (라셀 역), 로쉬드 젬 (프랭크 역), 엘로디 부셰 (테리 역), 니콜라스 뒤보셸 (뱅상 역), 장-프랑수아 스테브냉 


보석 코디네이터 ‘라셀’은 회사 홈페이지 제작을 위해 웹 전문가 ‘뱅상’과 사무실에서 야근을 한다. 순간 서로에서 끌리는데, 사실 둘 다 가정이 있다. 이 일 이후로 라셀은 남편 프랭크에게 얘기해서 뱅상 부부를 초대한다. 프랭크는 뱅상의 아내 테리를 물리치료 해 주다 그만 키스를 하는데, 프랭크는 아내에게 이 사실을 솔직히 얘기한다. 이후 네 사람은 다시 만나 합의하에 상대를 바꾸어 잠자리를 갖는다. 전혀 다른 성격의 남자와 여자를 품에 안은 그들은 새로운 삶을 얻은 것처럼 적극적으로 사랑한다. 새로운 사랑과 기존 부부간의 사랑, 두 가지 사랑에 모두 충실한 네 사람은 행복한 시간을 보낸다. 그러나 만남이 계속되면서 갈등이 생기고 처음 만날 때와는 달리 부부간의 신뢰가 무너짐을 느끼게 된다. 위기 의식을 느낀 그들은 모처럼 시간을 내서 함께 휴가를 떠난다. 이제 네 사람은 모든 허울을 벗어 버리고 본능에 충실히 오직 사랑에만 최선을 다한다. 네 사람의 사랑은 과연 영원할 수 있을까?


Happy.Few.2010.KORSUB.x264.AC3-ADiOS.mkv
   General
      Unique ID : 175235049889059934974332133502161487354 (0x83D50B014F98F61899AB7F54338F85FA)
      Complete name : Happy.Few.2010.KORSUB.x264.AC3-ADiOS.mkv
      Format : Matroska
      Format version : Version 2
      File size : 1.40 GiB
      Duration : 1h 43mn
      Overall bit rate : 1 926 Kbps
      Encoded date : UTC 2012-11-01 21:56:15
      Writing application : mkvmerge v5.8.0 ('No Sleep / Pillow') built on Sep  2 2012 15:37:04
  Video #1
      ID : 1
      Format : AVC
      Format/Info : Advanced Video Codec
      Format profile : Baseline@L3.0
      Format settings, CABAC : No
      Format settings, ReFrames : 1 frame
      Muxing mode : Header stripping
      Codec ID : V_MPEG4/ISO/AVC
      Duration : 1h 43mn
      Bit rate : 1 740 Kbps
      Width : 800 pixels
      Height : 432 pixels
      Display aspect ratio : 1.85:1
      Frame rate mode : Variable
      Frame rate : 23.976 fps
      Color space : YUV
      Chroma subsampling : 4:2:0
      Bit depth : 8 bits
      Scan type : Progressive
      Bits/(Pixel*Frame) : 0.210
      Stream size : 1.23 GiB (88%)
      Writing library : x264 core 125
      Encoding settings : cabac=0 / ref=1 / deblock=1:0:0 / analyse=0x1:0x1 / me=dia / subme=1 / psy=1 / psy_rd=1.00:0.00 / mixed_ref=0 / me_range=16 / chroma_me=1 / trellis=0 / 8x8dct=0 / cqm=0 / deadzone=21,11 / fast_pskip=1 / chroma_qp_offset=0 / threads=3 / lookahead_threads=1 / sliced_threads=0 / nr=0 / decimate=1 / interlaced=0 / bluray_compat=0 / constrained_intra=0 / bframes=0 / weightp=0 / keyint=250 / keyint_min=23 / scenecut=40 / intra_refresh=0 / rc=abr / mbtree=0 / bitrate=1740 / ratetol=1.0 / qcomp=0.60 / qpmin=0 / qpmax=69 / qpstep=4 / ip_ratio=1.40 / aq=1:1.00
      Default : Yes
      Forced : No
   Audio #2
      ID : 2
      Format : AC-3
      Format/Info : Audio Coding 3
      Mode extension : CM (complete main)
      Format settings, Endianness : Big
      Muxing mode : Header stripping
      Codec ID : A_AC3
      Duration : 1h 43mn
      Bit rate mode : Constant
      Bit rate : 192 Kbps
      Channel(s) : 2 channels
      Channel positions : Front: L R
      Sampling rate : 48.0 KHz
      Bit depth : 16 bits
      Compression mode : Lossy
      Delay relative to video : 8ms
      Stream size : 142 MiB (10%)
      Default : Yes
      Forced : No

영상자체자막 (11월 1일 개봉작)





포 러버즈 (11월개봉 자체자막 Happy.Few.2010.KORSUB.x264.AC3-ADiOS)
No 제목 날자
notice  
22473 09-25
22472 09-25
22471 09-24
22470 09-24
22469 09-24
22468 09-24
22467 09-24
22466 09-24
22465 09-24
22464 09-24
22463 09-24
22462 09-24
22461 09-24
22460 09-24
22459 09-24
22458 09-24
22457 09-24
22456 09-24
22455 09-24
22454 09-24
22453 09-24
22452 09-24
22451 09-24
22450 09-24
22449 09-24
22448 09-24
22447 09-24
22446 09-23
22445 09-23
22444 09-23
22443 09-22
22442 09-22
22441 09-22
22440 09-22
22439 09-22